[Login] or [Signup]
Login
Username:
Password:
[Signup]
[Recover Account]


Poll


You must be logged in to view polls



Torrent Details For " Dashing Jigarwala 3 (2019 - Velipadinte Pusthakam South Hindi Dubbed) - DTHRip[Mp4 - AAC3(5...."

Dashing Jigarwala 3 (2019 - Velipadinte Pusthakam South Hindi Dubbed) - DTHRip[Mp4 - AAC3(5....

Download this torrent | Magnet Download
Health:
Seeds: 24
Leechers: 18
Completed: 168 
Last Checked: 14-02-2019 11:34:03
External Torrent
Update Stats
Download Magnet


Poster


iMDB
Title: Velipadinte Pusthakam
Year: 2017
Runtime: 157 minutes
Votes: 1173
Rating: 5.0/10
Director: Lal Jose
Writing By: Benny P. Nayarambalam,
Produced By: Antony Perumbavoor,
Music: Shaan Rahman
Cast:
Mohanlal as Prof. Fr. Michael Idikkula
Anoop Menon as Bullet Viswan
Arun Kurian as Sameer
Sarath Kumar as Franklin
Reshma Rajan as Mary
Chemban Vinod Jose as Kakka Rameshan
Salim Kumar as Prof. Premraj Damodaran
Shivaji Guruvayoor as Fr. George Kattuparamban
Priyanka Nair as Jayanthi
Vijay Babu as Himself - Film Producer


Watch-Free-HD     Download

Details
Name: Dashing Jigarwala 3 (2019 - Velipadinte Pusthakam South Hindi Dubbed) - DTHRip[Mp4 - AAC3(5....
Description:
         Dashing Jigarwala 3 (2019 - Velipadinte Pusthakam South Hindi Dubbed)
- DTHRip[Mp4 - AAC3(5.1Ch)] - 850 MB  
 






General
Format                                   : MPEG-4
Format profile                           : Base Media
Codec ID                                 : isom (isom)
File size                                : 850 MiB

Video
ID                                       : 1
Format                                   : AVC
Format/Info                              : Advanced Video Codec
Format profile                           : [email protected]
Format settings                          : CABAC / 4 Ref Frames
Format settings, CABAC                   : Yes
Format settings, RefFrames               : 4 frames
Codec ID                                 : avc1
Codec ID/Info                            : Advanced Video Coding
Duration                                 : 2 h 30 min
Bit rate                                 : 658 kb/s
Maximum bit rate                         : 2 362 kb/s
Width                                    : 640 pixels
Height                                   : 272 pixels
Display aspect ratio                     : 2.35:1
Frame rate mode                          : Constant
Frame rate                               : 25.000 FPS
Color space                              : YUV
Chroma subsampling                       : 4:2:0
Bit depth                                : 8 bits
Scan type                                : Progressive
Bits/(Pixel*Frame)                       : 0.151
Stream size                              : 709 MiB (83%)

Audio
ID                                       : 2
Format                                   : AAC LC SBR
Commercial name                          : HE-AAC
Format settings                          : Explicit
Codec ID                                 : mp4a-40-2
Duration                                 : 2 h 30 min
Bit rate mode                            : Variable
Bit rate                                 : 128 kb/s
Maximum bit rate                         : 138 kb/s
Channel(s)                               : 6 channels
Channel layout                           : C L R Ls Rs LFE
Sampling rate                            : 48.0 kHz
Stream size                              : 138 MiB (16%)
Language                                 : Hindi


  Thumbnail    




Category:Movies > South Dub
Lang:Hindi
Total Size:850.03 MB
Info Hash:828156497bc5aab6edb00af68b9971ba0e489231
Added By:CyberTron
Date Added:12-02-2019 12:18:24
Views:466
Hits:25

Download Torrent

Ratings:Not Yet Rated (Log in to rate it)

  


Tracker:
udp://tracker.trackerfix.com:80/announce


File List: 


Comments

No comments still posted

Powered by 10 Hamsters v2-svn -|- Page Generated In 0.780789 secs.
-|- RSS FEED
Theme By: Nikkbu