[Login] or [Signup]
Login
Username:
Password:
[Signup]
[Recover Account]


Poll


You must be logged in to view polls



Torrent Details For "Soori The Street Fighter Hindi Dubbed(2019)1080pHDRipx264AAC5.1"

Soori The Street Fighter Hindi Dubbed(2019)1080pHDRipx264AAC5.1

Download this torrent | Magnet Download
Health:
Seeds: 38
Leechers: 59
Completed: 62 
Last Checked: 11-02-2019 03:36:51
External Torrent
Update Stats
Download Magnet


Poster


iMDB
Title: RX Suri
Year: 2015
Votes: 24
Rating: 5.6/10
Language: Kannada
Director: Shrijai
Writing By: Shrijai,
Produced By: K.A. Suresh,
Music: Arjun Janya
Cast:
Akanksha as
Adi Lokesh as
P. Ravi Shankar as
Duniya Vijay as Suri


Watch-Free-HD     Download

Details
Name:Soori The Street Fighter Hindi Dubbed(2019)1080pHDRipx264AAC5.1
Description:
Soori The Street Fighter Hindi Dubbed(2019)1080pHDRipx264AAC5.1




http://www.imdb.com/title/tt4995784




[code]
General
Complete name                  : Soori The Street Fighter Hindi Dubbed(2019)1080pHDRipx264AAC5.1.mp4
Format                         : MPEG-4
Format profile                 : Base Media
Codec ID                       : isom (isom/iso2/avc1/mp41)
File size                      : 2.08 GiB
Duration                       : 2 h 52 min
Overall bit rate mode          : Variable
Overall bit rate               : 1 726 kb/s
Encoded date                   : UTC 2019-02-08 04:20:46
Tagged date                    : UTC 2019-02-08 04:20:46
Writing application            : Lavf51.12.1

Video
ID                             : 1
Format                         : AVC
Format/Info                    : Advanced Video Codec
Format profile                 : [email protected]
Format settings, CABAC         : Yes
Format settings, RefFrames     : 1 frame
Format settings, GOP           : M=1, N=12
Codec ID                       : avc1
Codec ID/Info                  : Advanced Video Coding
Duration                       : 2 h 52 min
Bit rate mode                  : Variable
Bit rate                       : 1 402 kb/s
Width                          : 1 280 pixels
Height                         : 780 pixels
Display aspect ratio           : 16:10
Frame rate mode                : Constant
Frame rate                     : 25.000 FPS
Color space                    : RGB
Chroma subsampling             : 4:2:0
Bit depth                      : 8 bits
Scan type                      : Progressive
Bits/(Pixel*Frame)             : 0.056
Stream size                    : 1.69 GiB (81%)
Encoded date                   : UTC 2019-02-08 04:20:46
Tagged date                    : UTC 2019-02-08 04:20:46
Color range                    : Limited
Matrix coefficients            : RGB

Audio
ID                             : 2
Format                         : AAC
Format/Info                    : Advanced Audio Codec
Format profile                 : LC
Codec ID                       : 40
Duration                       : 2 h 52 min
Bit rate mode                  : Variable
Bit rate                       : 320 kb/s
Channel(s)                     : 2 channels
Channel(s)_Original            : 6 channels
Channel positions              : Front: L C R, Side: L R, LFE
Sampling rate                  : 44.1 kHz
Frame rate                     : 43.066 FPS (1024 SPF)
Compression mode               : Lossy
Stream size                    : 395 MiB (19%)
Encoded date                   : UTC 2019-02-08 04:20:46
Tagged date                    : UTC 2019-02-08 04:20:46
[/code]

















Category:Movies > 1080P Bluray
Lang:Hindi
Total Size:2.08 GB
Info Hash:e49f5475d6107b31393dc7c076121ce15e82834a
Added By:newlifemasti0
Date Added:08-02-2019 05:01:17
Views:446
Hits:20

Download Torrent

Ratings:Not Yet Rated (Log in to rate it)


Tracker:
udp://tracker.opentrackr.org:1337/announce

This Torrent also has backup trackers
URLSeedersLeechersCompleted
http://vps02.net.orel.ru:80/announce121
http://tracker.torrentyorg.pl/announce122


File List: 


Comments

No comments still posted

Powered by 10 Hamsters v2-svn -|- Page Generated In 2.018852 secs.
-|- RSS FEED
Theme By: Nikkbu